Central Intelligence (2016) NL Subs 720p BanaanDMS torrent download

seeders: 762
leechers: 152
updated:
Added ago by BanaanDMS ***** in Movies
Torrent Downloaded 10 times.
Info Hash: 6225BDDEAAFA19F10628FAB5C9BC73829BA9F2E8


Torrent Files

Central Intelligence (2016) NL Subs 720p BanaanDMS (Size: 1.8 GB)
  Central Intelligence (2016) NL Subs 720p BanaanDMS 1.8 GB

Torrent Description




Central Intelligence


After he reconnects with an awkward pal from high school through Facebook, a mild-mannered accountant is lured into the world of international espionage.










General
Format : MPEG-4
Format profile : Base Media / Version 2
Codec ID : mp42 (isom/iso2/avc1/mp41)
File size : 1.80 GiB
Duration : 1 h 56 min
Overall bit rate mode : Variable
Overall bit rate : 2 217 kb/s
Writing application : HandBrake 0.10.2 2015060900

Video
ID : 1
Format : AVC
Format/Info : Advanced Video Codec
Format profile : [email protected]
Format settings : CABAC / 4 Ref Frames
Format settings, CABAC : Yes
Format settings, RefFrames : 4 frames
Codec ID : avc1
Codec ID/Info : Advanced Video Coding
Duration : 1 h 56 min
Bit rate : 2 050 kb/s
Width : 1 280 pixels
Height : 534 pixels
Display aspect ratio : 2.40:1
Original display aspect ratio : 2.40:1
Frame rate mode : Variable
Frame rate : 23.976 FPS
Minimum frame rate : 23.810 FPS
Maximum frame rate : 24.390 FPS
Color space : YUV
Chroma subsampling : 4:2:0
Bit depth : 8 bits
Scan type : Progressive
Bits/(Pixel*Frame) : 0.125
Stream size : 1.67 GiB (92%)
Writing library : x264 core 142 r2479 dd79a61
Encoding settings : cabac=1 / ref=1 / deblock=1:0:0 / analyse=0x1:0x111 / me=hex / subme=2 / psy=1 / psy_rd=1.00:0.00 / mixed_ref=0 / me_range=16 / chroma_me=1 / trellis=0 / 8x8dct=0 / cqm=0 / deadzone=21,11 / fast_pskip=1 / chroma_qp_offset=0 / threads=3 / lookahead_threads=1 / sliced_threads=0 / nr=0 / decimate=1 / interlaced=0 / bluray_compat=0 / constrained_intra=0 / bframes=3 / b_pyramid=2 / b_adapt=1 / b_bias=0 / direct=1 / weightb=1 / open_gop=0 / weightp=1 / keyint=240 / keyint_min=24 / scenecut=40 / intra_refresh=0 / rc_lookahead=10 / rc=crf / mbtree=1 / crf=20.0 / qcomp=0.60 / qpmin=0 / qpmax=69 / qpstep=4 / vbv_maxrate=20000 / vbv_bufsize=25000 / crf_max=0.0 / nal_hrd=none / filler=0 / ip_ratio=1.40 / aq=1:1.00
Color range : Limited
Color primaries : BT.709
Transfer characteristics : BT.709
Matrix coefficients : BT.709
Codec configuration box : avcC

Audio
ID : 2
Format : AAC LC
Format/Info : Advanced Audio Codec Low Complexity
Codec ID : mp4a-40-2
Duration : 1 h 56 min
Bit rate mode : Variable
Bit rate : 160 kb/s
Channel(s) : 2 channels
Channel layout : L R
Sampling rate : 48.0 kHz
Frame rate : 46.875 FPS (1024 SPF)
Compression mode : Lossy
Stream size : 133 MiB (7%)
Title : Stereo / Stereo
Language : English
Default : Yes
Alternate group : 1



Related Torrents

torrent name size age seed leech
146.9 MB 4 minutes 694 382
282.9 MB 4 minutes 661 234
915.6 MB 4 minutes 382 354
654.9 MB 4 minutes 96 225
254.93 MB 9 minutes 23 405

Sharing Widget


Download torrent
1.8 GB
seeders:1214
leechers:386
Central Intelligence (2016) NL Subs 720p BanaanDMS



To share this torrent use the code below and insert it into comments, status messages, forum posts or your signature.

Torrent: Central Intelligence (2016) NL Subs 720p BanaanDMS

Comments

Latest Searches