A Bridge Too Far 1977 UNCUT 720p BrRip x265 HEVCBay torrent download

seeders: 30
leechers: 204
updated:
Added ago by g3m696 ***** in Movies
Torrent Downloaded 10 times.
Info Hash: 3D6124FCF76B01FC2B2DB8C39118889CA3BF86D6


Torrent Files

A Bridge Too Far 1977 UNCUT 720p BrRip x265 HEVCBay (Size: 578.6 MB)
  A Bridge Too Far 1977 UNCUT 720p BrRip x265 HEVCBay 578.6 MB

Torrent Description



hevcbay.com

Code:

General
Unique ID                                : 231854962715867263147901935886069289664 (0xAE6DA43C49D279CCB11D394E732252C0)
Complete name                            : A.Bridge.Too.Far.1977.UNCUT.720p.BrRip.x265.HEVCBay.com.mkv
Format                                   : Matroska
Format version                           : Version 4
File size                                : 579 MiB
Duration                                 : 2 h 56 min
Overall bit rate                         : 459 kb/s
Movie name                               : A.Bridge.Too.Far.1977.UNCUT.720p.BrRip.x265.HEVCBay.com.mkv
Encoded date                             : UTC 2019-02-11 00:26:28
Writing application                      : hevcbay
Writing library                          : hevcbay.com / Lavf58.22.100
Comment                                  : Encoded by hevcbay.com
ENCODED-BY                               : hevcbay.com

Video
ID                                       : 1
Format                                   : HEVC
Format/Info                              : High Efficiency Video Coding
Format profile                           : [email protected]@Main
Codec ID                                 : V_MPEGH/ISO/HEVC
Duration                                 : 2 h 56 min
Bit rate                                 : 406 kb/s
Width                                    : 1 280 pixels
Height                                   : 550 pixels
Display aspect ratio                     : 2.35:1
Original display aspect ratio            : 2.35:1
Frame rate mode                          : Constant
Frame rate                               : 23.976 FPS
Color space                              : YUV
Chroma subsampling                       : 4:2:0
Bit depth                                : 8 bits
Bits/(Pixel*Frame)                       : 0.024
Stream size                              : 512 MiB (89%)
Writing library                          : Lavc58.42.102 libx265
Language                                 : English
Default                                  : Yes
Forced                                   : No
Color range                              : Limited

Audio
ID                                       : 2
Format                                   : AAC LC SBR PS
Format/Info                              : Advanced Audio Codec Low Complexity with Spectral Band Replication and Parametric Stereo
Commercial name                          : HE-AACv2
Format settings                          : NBC
Codec ID                                 : A_AAC-29
Duration                                 : 2 h 56 min
Bit rate                                 : 48.0 kb/s
Channel(s)                               : 2 channels
Channel layout                           : C
Sampling rate                            : 48.0 kHz
Frame rate                               : 23.438 FPS (2048 SPF)
Compression mode                         : Lossy
Delay relative to video                  : -148 ms
Stream size                              : 62.5 MiB (11%)
Writing library                          : Lavc58.42.102 libfdk_aac
Language                                 : English
Default                                  : Yes
Forced                                   : No

Text #1
ID                                       : 3
Format                                   : UTF-8
Codec ID                                 : S_TEXT/UTF8
Codec ID/Info                            : UTF-8 Plain Text
Duration                                 : 2 h 50 min
Bit rate                                 : 45 b/s
Count of elements                        : 1816
Stream size                              : 57.4 KiB (0%)
Language                                 : English
Default                                  : Yes
Forced                                   : No

Text #2
ID                                       : 4
Format                                   : UTF-8
Codec ID                                 : S_TEXT/UTF8
Codec ID/Info                            : UTF-8 Plain Text
Duration                                 : 2 h 48 min
Bit rate                                 : 37 b/s
Count of elements                        : 1673
Stream size                              : 46.4 KiB (0%)
Language                                 : Dutch
Default                                  : No
Forced                                   : No

Text #3
ID                                       : 5
Format                                   : UTF-8
Codec ID                                 : S_TEXT/UTF8
Codec ID/Info                            : UTF-8 Plain Text
Duration                                 : 2 h 49 min
Bit rate                                 : 38 b/s
Count of elements                        : 1723
Stream size                              : 48.0 KiB (0%)
Language                                 : French
Default                                  : No
Forced                                   : No

Text #4
ID                                       : 6
Format                                   : UTF-8
Codec ID                                 : S_TEXT/UTF8
Codec ID/Info                            : UTF-8 Plain Text
Duration                                 : 2 h 48 min
Bit rate                                 : 40 b/s
Count of elements                        : 1723
Stream size                              : 49.9 KiB (0%)
Language                                 : Italian
Default                                  : No
Forced                                   : No

Text #5
ID                                       : 7
Format                                   : UTF-8
Codec ID                                 : S_TEXT/UTF8
Codec ID/Info                            : UTF-8 Plain Text
Duration                                 : 2 h 48 min
Bit rate                                 : 43 b/s
Count of elements                        : 1720
Stream size                              : 53.1 KiB (0%)
Language                                 : Danish
Default                                  : No
Forced                                   : No

Text #6
ID                                       : 8
Format                                   : UTF-8
Codec ID                                 : S_TEXT/UTF8
Codec ID/Info                            : UTF-8 Plain Text
Duration                                 : 2 h 48 min
Bit rate                                 : 44 b/s
Count of elements                        : 1721
Stream size                              : 54.8 KiB (0%)
Language                                 : Finnish
Default                                  : No
Forced                                   : No

Text #7
ID                                       : 9
Format                                   : UTF-8
Codec ID                                 : S_TEXT/UTF8
Codec ID/Info                            : UTF-8 Plain Text
Duration                                 : 2 h 48 min
Bit rate                                 : 41 b/s
Count of elements                        : 1722
Stream size                              : 51.3 KiB (0%)
Language                                 : Norwegian
Default                                  : No
Forced                                   : No

Text #8
ID                                       : 10
Format                                   : UTF-8
Codec ID                                 : S_TEXT/UTF8
Codec ID/Info                            : UTF-8 Plain Text
Duration                                 : 2 h 49 min
Bit rate                                 : 39 b/s
Count of elements                        : 1723
Stream size                              : 48.3 KiB (0%)
Language                                 : Swedish
Default                                  : No
Forced                                   : No








Related Torrents

torrent name size age seed leech
1.3 GB 2 minutes 693 236
1.3 GB 2 minutes 63 445
1.3 GB 2 minutes 732 441
1.3 GB 2 minutes 88 473
190.8 MB 3 minutes 118 368

Sharing Widget


Download torrent
578.6 MB
seeders:1214
leechers:386
A Bridge Too Far 1977 UNCUT 720p BrRip x265 HEVCBay



To share this torrent use the code below and insert it into comments, status messages, forum posts or your signature.

Torrent: A Bridge Too Far 1977 UNCUT 720p BrRip x265 HEVCBay

Comments

Latest Searches